<?xml version="1.0" standalone="no"?>
<!DOCTYPE svg PUBLIC "-//W3C//DTD SVG 1.1//EN" "http://www.w3.org/Graphics/SVG/1.1/DTD/svg11.dtd" >
<svg xmlns="http://www.w3.org/2000/svg" xmlns:xlink="http://www.w3.org/1999/xlink" version="1.1">
<metadata></metadata>
<defs>
<font id="karlaitalic" horiz-adv-x="1040" >
<font-face units-per-em="2048" ascent="1638" descent="-410" />
<missing-glyph horiz-adv-x="438" />
<glyph horiz-adv-x="0" />
<glyph unicode="&#xd;" horiz-adv-x="1019" />
<glyph unicode=" "  horiz-adv-x="438" />
<glyph unicode="&#x09;" horiz-adv-x="438" />
<glyph unicode="&#xa0;" horiz-adv-x="438" />
<glyph unicode="!" horiz-adv-x="512" d="M163 97q5 48 37.5 82t80.5 34q47 0 76.5 -34t24.5 -82t-40 -81.5t-82 -33.5t-74.5 33.5t-22.5 81.5zM238 360l69 924h152l-103 -924h-118z" />
<glyph unicode="&#x22;" horiz-adv-x="563" d="M160 944l22 451h152l-64 -451h-110zM469 944l23 451h151l-63 -451h-111z" />
<glyph unicode="#" horiz-adv-x="1155" d="M129 348l21 111h184l69 364h-186l21 109h186l53 282h137l-53 -282h283l53 282h135l-53 -282h188l-20 -109h-189l-69 -364h188l-20 -111h-189l-53 -285h-137l53 285h-282l-54 -285h-135l53 285h-184zM471 459h283l69 364h-282z" />
<glyph unicode="$" horiz-adv-x="1165" d="M178 387h141q-10 -123 53.5 -184.5t178.5 -73.5l47 483l-57 23q-152 55 -217 127q-72 76 -60 212t113.5 227t286.5 106l14 153h115l-15 -155q158 -14 237 -101.5t87 -228.5h-144q-16 160 -194 188l-41 -440l125 -47q123 -47 186.5 -126t50.5 -212q-12 -139 -122 -238 q-119 -109 -312 -120l-14 -166h-115l15 168q-170 16 -269 116q-106 109 -90 289zM420 967.5q-6 -74.5 27.5 -116.5t111.5 -71l53 -20l37 403q-104 -10 -163.5 -65.5t-65.5 -130zM666 127q119 10 183.5 73.5t74.5 141.5q12 152 -150 211l-65 25z" />
<glyph unicode="%" horiz-adv-x="1337" d="M217 0l899 1288h152l-901 -1288h-150zM220 1018q13 143 90 218t173.5 75t157.5 -79t48 -220.5t-91 -215t-172 -73.5q-100 0 -158 74q-61 78 -48 221zM332 1016q-10 -96 19.5 -139t82.5 -43t90 43t47 139q11 96 -19 141t-83 45t-90 -45t-47 -141zM793 270q12 139 90 222 q74 73 172 73q100 0 157 -73q63 -80 52 -222q-12 -139 -93 -219q-74 -74 -174 -74q-98 0 -155 74q-61 78 -49 219zM906 270.5q-9 -96.5 20.5 -139.5t83.5 -43q53 0 90 43t45 139q10 96 -19 141.5t-82 45.5t-91 -45t-47 -141.5z" />
<glyph unicode="&#x26;" horiz-adv-x="1687" d="M209.5 345.5q15.5 150.5 110 227t268.5 107.5l-25 27q-131 139 -114 301q12 131 116 215q109 86 273 86q150 0 239 -88q86 -82 75 -205t-91 -211t-250 -166l266 -285q133 162 244 424l96 -61q-113 -287 -254 -455l72 -76q33 -35 60.5 -51t72.5 -16t84 38t53 130h137 q-23 -147 -92 -228.5t-186 -81.5q-72 0 -130 33t-124 105l-43 45q-199 -182 -436 -183q-193 0 -318 109q-119 109 -103.5 259.5zM371 362q-10 -100 59.5 -170.5t216.5 -70.5q180 0 332 135l-309 336q-285 -40 -299 -230zM606 993q-12 -121 82 -221l47 -51q195 94 240 205 q14 35 19 91t-41 105t-137 49t-147.5 -56t-62.5 -122z" />
<glyph unicode="'" horiz-adv-x="249" d="M158 936l22 450h152l-64 -450h-110z" />
<glyph unicode="(" horiz-adv-x="655" d="M215.5 629.5q22.5 236.5 135 457t311.5 404.5l98 -84q-352 -360 -393 -778q-37 -422 245 -779l-112 -81q-164 182 -235.5 403t-49 457.5z" />
<glyph unicode=")" horiz-adv-x="655" d="M37 -150q352 360 393 779q37 422 -246 778l113 84q330 -371 283 -862q-23 -236 -135.5 -457t-309.5 -403z" />
<glyph unicode="*" horiz-adv-x="759" d="M211 1139l55 110l185 -110l4 262h114l-43 -262l207 110l33 -110l-221 -82l147 -183l-88 -79l-127 213l-168 -213l-76 79l185 183z" />
<glyph unicode="+" horiz-adv-x="970" d="M74 434l12 137h381l39 435h147l-41 -435h379l-12 -137h-381l-39 -434h-145l39 434h-379z" />
<glyph unicode="," horiz-adv-x="387" d="M39 -164q125 66 154 154q-41 4 -68 30.5t-23 71.5t37 76t85 31t83 -46.5t24 -116t-55.5 -142t-134.5 -117.5z" />
<glyph unicode="-" horiz-adv-x="643" d="M119 526l14 140h502l-14 -140h-502z" />
<glyph unicode="." horiz-adv-x="329" d="M67.5 97q4.5 48 37 82t80.5 34t76 -34t24 -82t-38 -81.5t-81 -33.5t-75 33.5t-23.5 81.5z" />
<glyph unicode="/" horiz-adv-x="796" d="M90 -150l619 1647h147l-620 -1647h-146z" />
<glyph unicode="0" horiz-adv-x="1095" d="M188 645q29 324 170 498q136 168 347 168t313 -168q106 -170 78 -498q-49 -494 -330 -625q-88 -43 -191 -43q-209 0 -311 166q-109 176 -76 502zM337.5 644q-24.5 -251 41 -385t214 -134t238 134t114 385t-40 385t-214 134t-239 -134t-114 -385z" />
<glyph unicode="1" horiz-adv-x="610" d="M186 1028l15 160q129 18 227 104h117l-121 -1292h-143l102 1100q-90 -61 -197 -72z" />
<glyph unicode="2" horiz-adv-x="1069" d="M119 0l16 190q23 227 189 334q51 35 114 62l238 102q184 78 201 256q10 98 -45.5 160.5t-165 62.5t-183 -51t-94.5 -153h-160q25 168 145 258t304 90q172 0 270 -107q102 -109 86 -264.5t-97 -247.5t-214 -147l-244 -105q-92 -41 -140 -93t-56 -136l-7 -61h672l-12 -150 h-817z" />
<glyph unicode="3" horiz-adv-x="1089" d="M154 395h151q-10 -133 69 -201.5t207 -68.5t204.5 68.5t87 170t-52 166t-216.5 64.5h-133l14 129h90q133 0 215 58.5t92.5 156.5t-47 161.5t-161 63.5t-176 -40t-105.5 -148h-151q35 170 157 258q109 78 279 78q82 0 152.5 -27t119.5 -72q104 -98 92 -254 q-23 -207 -231 -284q106 -35 166.5 -115t51.5 -184.5t-46 -174t-96 -118.5q-127 -104 -322 -105q-186 0 -303 105q-129 117 -108 313z" />
<glyph unicode="4" horiz-adv-x="1030" d="M76 311l12 125l690 871h133l-80 -856h201l-14 -140h-201l-29 -311h-141l27 311h-598zM262 436h428l58 615z" />
<glyph unicode="5" d="M170 358h145q-10 -117 57.5 -175t176.5 -58q121 0 201 84q80 80 90 205q23 248 -262 248h-312l111 626h643l-14 -147h-502l-68 -371q100 18 185 18q190 0 289.5 -93t82.5 -277q-20 -197 -141 -316q-131 -125 -317 -125q-172 0 -273 97q-109 104 -92 284z" />
<glyph unicode="6" horiz-adv-x="1056" d="M176 621q29 319 176 505q145 184 371 185q158 0 246 -96.5t86 -251.5h-156q-14 201 -186 200q-160 0 -262 -151q-115 -168 -136 -504q-4 -47 -2 -90q45 276 244 340q59 18 129 18t134.5 -29.5t109.5 -82.5q96 -117 80 -291q-20 -178 -138 -288t-297 -110q-205 0 -317 185 q-106 180 -82 461zM371.5 372.5q-9.5 -112.5 53 -180t167 -67.5t180.5 67.5t86 186.5t-52.5 186.5t-165.5 67.5t-181 -74t-87.5 -186.5z" />
<glyph unicode="7" horiz-adv-x="866" d="M106 0l664 1133h-618l14 155h788l-14 -149l-637 -1139h-197z" />
<glyph unicode="8" horiz-adv-x="1132" d="M150 344q10 127 92 207t204 100q-92 49 -133 103q-78 102 -67 215q12 154 135 245q126 97 319 97q98 0 173 -28t126 -75q111 -102 95 -256q-8 -109 -82 -190q-76 -84 -195 -105l31 -12q123 -53 183.5 -126t46 -212t-145.5 -234.5t-354 -95.5q-201 0 -324 105 q-121 104 -104 262zM301 358q-12 -109 76 -174q80 -59 223 -59t231.5 53t95.5 129t-34 122t-113 77l-200 86q-115 -12 -195 -80q-76 -66 -84 -154zM398.5 947.5q-9.5 -97.5 142.5 -167.5l129 -57q111 4 186 63q76 59 87 157.5t-59.5 159t-193.5 60.5q-117 0 -198 -57 q-84 -61 -93.5 -158.5z" />
<glyph unicode="9" horiz-adv-x="1071" d="M178 381h154q-10 -117 47 -186.5t153.5 -69.5t158 40t106.5 114q86 143 112 411q8 78 4 152q-35 -166 -132 -248t-228 -82q-158 0 -252 113.5t-78 289.5q16 178 136 287t300 109q94 0 175 -45t135 -129q117 -182 88 -469q-51 -502 -314 -643q-90 -47 -191 -47.5 t-172 29.5t-118 83q-100 117 -84 291zM373.5 907q-11.5 -119 51 -186.5t169.5 -67.5q102 0 178 72q78 76 87 188.5t-53.5 180t-165.5 67.5t-179 -67.5t-87.5 -186.5z" />
<glyph unicode=":" horiz-adv-x="425" d="M121 163q4 48 36.5 82t81 34t76 -34t23.5 -82t-38 -82t-81 -34t-74.5 34t-23.5 82zM180 789.5q4 48.5 37 82t81 33.5t75.5 -33.5t23.5 -82t-37.5 -82t-81 -33.5t-75 33.5t-23.5 82z" />
<glyph unicode=";" horiz-adv-x="483" d="M88 -164q125 66 154 154q-41 4 -68 30.5t-22.5 71.5t37 76t85 31t83 -46.5t23.5 -116t-55.5 -142t-134.5 -117.5zM223 789.5q4 48.5 37 82t81 33.5t75.5 -33.5t23.5 -82t-37.5 -82t-81 -33.5t-75 33.5t-23.5 82z" />
<glyph unicode="&#x3c;" horiz-adv-x="837" d="M125 555l12 141l629 475l84 -122l-571 -424l491 -418l-106 -125z" />
<glyph unicode="=" horiz-adv-x="899" d="M168 240l12 139h608l-12 -139h-608zM205 631l12 141h608l-12 -141h-608z" />
<glyph unicode="&#x3e;" horiz-adv-x="837" d="M104 207l568 418l-488 424l107 122l536 -475l-12 -141l-627 -473z" />
<glyph unicode="?" horiz-adv-x="919" d="M147 975q27 152 135.5 244t295.5 92q174 0 270 -99q90 -96 78 -239q-10 -106 -65.5 -178t-168.5 -136q-104 -61 -131 -94q-45 -59 -53 -155l-8 -80h-144l9 92q12 133 57 199q49 68 158 129q98 57 131 94q49 55 57 135t-45.5 132t-157.5 52q-215 0 -262 -188h-156zM301 91 q4 48 37 83t80 35t75.5 -35t24.5 -83t-40 -81t-83 -33t-72.5 33t-21.5 81z" />
<glyph unicode="@" horiz-adv-x="1732" d="M182.5 463q16.5 182 92 337.5t195.5 269.5t276.5 177.5t324.5 63.5t293 -55.5t209 -150.5t123 -224t25.5 -265.5t-56.5 -238t-104 -172.5q-129 -147 -289 -148q-78 0 -122 37t-48 107l-4 32q-41 -78 -100.5 -127t-134.5 -49t-125 26t-87 73q-80 102 -63 256 q20 203 157 342q131 137 297 137q111 0 168.5 -74t42.5 -223l-30 -311q-8 -104 63 -105q84 0 168 109q98 123 117 319q20 244 -113 400q-135 160 -391 159q-293 0 -506 -211q-201 -203 -229 -505q-33 -309 145 -499t520 -190l-14 -131q-199 0 -355.5 62.5t-261 173 t-152.5 263.5t-31.5 335zM725 414q-12 -109 33 -168.5t120.5 -59.5t128 48.5t105.5 140.5l18 217q10 88 -13 130t-78.5 42t-105.5 -24.5t-93 -69.5q-102 -104 -115 -256z" />
<glyph unicode="A" horiz-adv-x="1058" d="M47 0l520 1288h178l267 -1288h-152l-67 328h-461l-131 -328h-154zM381 455h385l-131 637z" />
<glyph unicode="B" horiz-adv-x="1146" d="M186 0l121 1288h434q182 0 277 -100q74 -79 74 -187q0 -16 -2 -32q-25 -264 -250 -322q106 -20 164 -102q50 -74 50 -163q0 -74 -34 -159q-53 -133 -207 -192q-80 -31 -192 -31h-435zM344 141h287q244 0 266 217q1 15 1 28q0 78 -48 128q-57 58 -178 59h-287zM397 713 h285q106 0 175 58q69 59 79 161q2 16 2 30q0 82 -48 130q-56 58 -167 57h-285z" />
<glyph unicode="C" horiz-adv-x="1130" d="M184 651q29 313 189 492q152 168 352.5 168t304 -103.5t131.5 -269.5l-162 -35q-25 121 -97.5 191.5t-176.5 70.5q-143 0 -250 -129q-111 -139 -135 -385q-5 -59 -5 -111q0 -280 148 -378q59 -39 144 -39q139 0 227 81t100 214h156q-20 -205 -156 -324 q-133 -117 -342 -117q-227 0 -344 187q-90 143 -90 367q0 57 6 120z" />
<glyph unicode="D" horiz-adv-x="1218" d="M184 0l121 1288h342q262 0 404 -176q117 -146 117 -371q0 -46 -5 -96q-29 -293 -200 -469q-174 -176 -439 -176h-340zM342 141h197q190 0 321 144q127 139 148 360q3 37 3 71q0 173 -83 288q-104 141 -295 141h-197z" />
<glyph unicode="E" horiz-adv-x="1036" d="M184 0l121 1288h715l-16 -139h-568l-41 -432h535l-12 -137h-535l-41 -439h569l-14 -141h-713z" />
<glyph unicode="F" horiz-adv-x="966" d="M186 0l121 1288h705l-15 -139h-559l-41 -428h521l-13 -139h-520l-53 -582h-146z" />
<glyph unicode="G" horiz-adv-x="1187" d="M182 629q27 317 211 506q166 174 398 174q276 0 389 -258l-146 -54q-106 166 -264 166q-160 0 -283 -143q-127 -145 -151 -391q-4 -44 -4 -84q0 -165 65 -279q82 -141 246 -141q125 0 216 92t114 285l2 12v4l-291 12l10 107h432l-57 -637h-119l2 223q-98 -246 -334 -246 q-213 0 -335 175q-106 151 -106 376q0 49 5 101z" />
<glyph unicode="H" horiz-adv-x="1232" d="M186 0l121 1288h146l-56 -567h570l55 567h147l-122 -1288h-146l53 582h-569l-53 -582h-146z" />
<glyph unicode="I" horiz-adv-x="516" d="M186 0l121 1288h146l-121 -1288h-146z" />
<glyph unicode="J" horiz-adv-x="745" d="M20 63l15 168q123 -98 235.5 -98t158.5 61.5t58 178.5l86 915h146l-86 -915q-23 -211 -117 -303.5t-235 -92.5q-78 0 -139.5 25t-121.5 61z" />
<glyph unicode="K" horiz-adv-x="1122" d="M186 0l121 1288h148l-56 -596l574 596h201l-562 -577l471 -711h-188l-391 596l-127 -129l-43 -467h-148z" />
<glyph unicode="L" horiz-adv-x="862" d="M186 0l121 1288h146l-109 -1147h516l-12 -141h-662z" />
<glyph unicode="M" horiz-adv-x="1562" d="M186 0l121 1288h209l307 -872l471 872h205l-123 -1288h-145l98 1057l-481 -895h-98l-318 913l-100 -1075h-146z" />
<glyph unicode="N" horiz-adv-x="1261" d="M182 0l121 1288h174l475 -1032l101 1032h145l-121 -1288h-164l-485 1051l-98 -1051h-148z" />
<glyph unicode="O" horiz-adv-x="1189" d="M186 643q27 324 189 504q150 164 375 164t344 -168q101 -140 101 -382q0 -56 -5 -118q-31 -328 -193 -502q-152 -164 -374 -164q-227 0 -342 166q-101 142 -101 380q0 57 6 120zM336 641q-6 -58 -6 -110q0 -174 63 -275q82 -131 244 -131t269.5 131t131.5 385q6 58 6 110 q0 175 -64 279q-83 135 -246 135t-268.5 -135t-129.5 -389z" />
<glyph unicode="P" horiz-adv-x="1021" d="M182 0l121 1288h375q192 0 282 -108q76 -90 76 -232q0 -28 -2 -57q-18 -182 -128.5 -287.5t-303.5 -105.5h-227l-47 -498h-146zM387 637h229q119 0 187.5 67.5t78.5 185.5q2 19 2 36q0 92 -46 152q-56 70 -174 71h-230z" />
<glyph unicode="Q" horiz-adv-x="1202" d="M188 643q27 324 189 504q150 164 375 164t344 -168q101 -140 101 -382q0 -56 -5 -118q-29 -283 -144.5 -441.5t-281.5 -205.5l49 -90q49 -80 119 -84q78 0 184 51l-16 -176q-78 -39 -160 -39q-156 0 -252 182l-74 137q-221 4 -337 170q-98 138 -98 369q0 61 7 127z M338 641q-6 -58 -6 -110q0 -174 63 -275q82 -131 244 -131t269.5 131t131.5 385q6 58 6 110q0 175 -64 279q-83 135 -246 135t-268.5 -135t-129.5 -389z" />
<glyph unicode="R" horiz-adv-x="1130" d="M186 0l121 1288h404q197 0 293 -106q77 -87 77 -217q0 -22 -2 -45q-33 -332 -340 -385l283 -535h-186l-252 526h-203l-49 -526h-146zM391 639h246q131 0 206 70.5t85 186.5q1 17 1 32q-1 92 -51 152q-60 68 -182 69h-258z" />
<glyph unicode="S" horiz-adv-x="1114" d="M174 387h141q-2 -17 -1 -33q0 -105 69 -166q72 -63 197 -63t204.5 62.5t87.5 147.5q1 15 2 29q0 65 -33 105q-40 49 -126 82l-197 84q-140 53 -206 127q-56 63 -56 169q0 19 2 40q27 238 258 315q78 25 174 25q178 0 268.5 -91.5t92.5 -244.5h-144q-4 90 -62.5 139 t-172 49t-181 -56t-74.5 -135q-1 -13 -1 -26q0 -60 28 -94q34 -41 119 -72l232 -92q121 -47 185 -129q54 -69 54 -176q0 -20 -2 -41q-12 -158 -135 -260q-127 -104 -332 -105q-180 0 -289 105q-103 100 -103 266q0 19 1 39z" />
<glyph unicode="T" horiz-adv-x="923" d="M119 1149l14 139h901l-14 -139h-379l-106 -1149h-146l107 1149h-377z" />
<glyph unicode="U" horiz-adv-x="1206" d="M225 465l80 823h146l-80 -823q-3 -33 -3 -62q0 -133 60 -198q72 -80 206 -80t222 80t105 260l79 823h146l-80 -823q-23 -242 -154 -365t-332.5 -123t-309.5 123q-89 102 -89 286q0 38 4 79z" />
<glyph unicode="V" horiz-adv-x="1038" d="M156 1288h151l230 -1087l436 1087h153l-532 -1288h-152z" />
<glyph unicode="W" horiz-adv-x="1648" d="M147 1288h162l180 -1069l375 936h99l192 -940l428 1073h160l-531 -1288h-153l-174 823l-340 -823h-152z" />
<glyph unicode="X" horiz-adv-x="1183" d="M88 0l469 639l-348 649h174l283 -526l356 526h174l-463 -647l361 -641h-183l-286 514l-359 -514h-178z" />
<glyph unicode="Y" horiz-adv-x="1011" d="M139 1288h174l256 -592l375 592h170l-487 -760l-49 -528h-148l49 528z" />
<glyph unicode="Z" horiz-adv-x="1091" d="M135 0l12 145l764 990l-669 6l14 147h852l-14 -145l-764 -989l669 -7l-14 -147h-850z" />
<glyph unicode="[" horiz-adv-x="583" d="M166 -209l160 1706h364l-12 -143h-219l-135 -1420h219l-13 -143h-364z" />
<glyph unicode="\" horiz-adv-x="796" d="M195 1497h145l621 -1647h-148z" />
<glyph unicode="]" horiz-adv-x="647" d="M41 -209l12 143h219l135 1420h-219l13 143h364l-160 -1706h-364z" />
<glyph unicode="^" horiz-adv-x="825" d="M84 502l391 698h113l258 -698h-162l-172 506l-264 -506h-164z" />
<glyph unicode="_" horiz-adv-x="1337" d="M78 -254l12 139h1135l-13 -139h-1134z" />
<glyph unicode="`" horiz-adv-x="579" d="M197 1618l73 143l408 -272l-51 -103z" />
<glyph unicode="a" horiz-adv-x="1032" d="M184 383q30 59 78 100q102 80 247.5 80t268.5 -53l13 125q3 28 3 54q0 93 -35 137q-44 58 -138.5 57.5t-157 -41.5t-70.5 -133h-162q16 160 125 227.5t267 67.5q248 0 301 -205q12 -48 13 -110q0 -28 -3 -58l-60 -631h-122v164q-100 -186 -314 -187q-131 0 -211 80 q-74 74 -74 169q1 97 31 157zM309 252q0 -66 38 -108t134 -42q104 0 187 76q90 82 98 211l2 19q-127 41 -228.5 41t-166 -46.5t-64.5 -150.5z" />
<glyph unicode="b" horiz-adv-x="1077" d="M186 0l131 1395h146l-55 -564q104 172 286 173q143 0 240 -119q100 -121 100 -320q0 -217 -110 -389q-55 -86 -139.5 -142.5t-184.5 -56.5q-203 0 -264 195l-49 -172h-101zM369 418q-2 -20 -2 -39q0 -109 59 -182q61 -76 149.5 -76t144.5 42t93 107q72 125 72 277.5 t-65.5 232.5t-166.5 80q-100 0 -178 -78q-82 -86 -94 -227z" />
<glyph unicode="c" horiz-adv-x="948" d="M158 492q25 236 157 378q125 134 291 134q78 0 135.5 -26t98.5 -69q80 -86 92 -217l-148 -14q-16 86 -64 134t-111.5 48t-111.5 -23.5t-87 -70.5q-88 -102 -103 -274q-3 -34 -3 -66q0 -124 50 -204q62 -102 167.5 -101.5t162.5 54.5t66 155h149q-12 -154 -121 -252 q-106 -100 -268 -101q-164 0 -266 138q-89 122 -89 306q0 34 3 71z" />
<glyph unicode="d" horiz-adv-x="1095" d="M152 422q0 217 110 385q127 197 316.5 197t261.5 -168l53 559h145l-131 -1395h-119l-4 164q-104 -186 -284 -187q-154 0 -250 121q-98 125 -98 324zM303 438.5q0 -151.5 64.5 -234.5t162.5 -83q94 0 170 76q84 84 101 225l14 143q2 22 2 42q0 113 -57 181q-59 72 -176 72 q-61 0 -117.5 -42t-93.5 -105q-70 -123 -70 -274.5z" />
<glyph unicode="e" horiz-adv-x="948" d="M162 487q25 238 149 377q123 139 297 140q195 0 275 -166q44 -90 44 -209q0 -80 -20 -174h-604q-3 -31 -3 -59q0 -191 118 -261q43 -26 106 -26q180 0 226 178h149q-35 -147 -139.5 -228.5t-247.5 -81.5q-176 0 -272 138q-83 116 -83 288q0 40 5 84zM317 578h471 q4 35 4 66q0 150 -92 206q-40 25 -98 25q-1 -1 -2 -1q-59 0 -106.5 -23.5t-83.5 -64.5q-72 -82 -93 -208z" />
<glyph unicode="f" horiz-adv-x="632" d="M172 868l10 111h144l14 149q14 147 93 215t171 68t166 -27l-39 -127q-57 27 -93 27t-58.5 -7t-42.5 -24q-43 -41 -52 -127l-14 -147h182l-10 -111h-182l-82 -868h-143l79 868h-143z" />
<glyph unicode="g" d="M45 -190q6 88 59.5 143t133.5 78q-51 29 -76 75q-20 37 -20 83q0 12 2 25q6 62 54 110.5t113 64.5q-76 86 -76 210q0 23 3 48q16 160 127 258t253 99h2q141 0 226 -74q23 109 94.5 174t179.5 65l-30 -159q-162 0 -183 -150q48 -78 48 -163q0 -15 -1 -29 q-10 -101 -43.5 -167.5t-87.5 -115.5q-111 -98 -264 -98q-104 0 -180 47q-39 -8 -71 -38t-38 -79q-1 -6 -1 -12q0 -99 155 -99h342q123 0 190 -58q59 -51 59 -137q0 -12 -1 -26q-12 -154 -162 -268q-156 -121 -389 -121q-199 0 -316 90q-103 81 -103 197q0 13 1 27z M188 -184v-12q0 -70 66 -122q72 -57 219 -57q162 0 277 76q106 72 118 174q1 6 1 12q0 39 -25 69q-27 34 -88 34h-359q-94 -4 -146.5 -50t-62.5 -124zM381 647q-2 -17 -2 -34q0 -83 43 -141q51 -69 150.5 -69t164 70t74.5 175q2 18 2 34q0 83 -43 138q-51 67 -152.5 67 t-164 -66.5t-72.5 -173.5z" />
<glyph unicode="h" horiz-adv-x="1114" d="M186 0l131 1395h146l-57 -596q111 205 313 205q159 0 235 -115q61 -91 60 -235q0 -38 -4 -79l-54 -575h-143l53 575q3 29 3 56q0 100 -42 157q-53 72 -165.5 72t-191.5 -105.5t-95 -291.5l-43 -463h-146z" />
<glyph unicode="i" horiz-adv-x="550" d="M195 0l92 981h145l-92 -981h-145zM297 1312q4 46 30.5 73.5t71.5 27.5q45 1 69 -27q20 -23 20 -60v-14q-4 -46 -33 -74t-74 -28t-67 28q-18 24 -18 60q0 7 1 14z" />
<glyph unicode="j" horiz-adv-x="579" d="M-197 -428l21 141q105 -76 192 -76l1 1q87 0 133.5 54t58.5 171l106 1120h146l-107 -1120q-18 -197 -103 -282t-210 -85q-115 0 -238 76zM324 1312q4 46 31.5 73.5t72.5 27.5t68 -27q21 -24 21 -61q0 -6 -1 -13q-4 -46 -32.5 -74t-73.5 -28t-68 28q-19 23 -19 59 q0 7 1 15z" />
<glyph unicode="k" d="M186 0l131 1395h146l-76 -809l463 393h203l-441 -367l369 -612h-180l-303 518l-127 -106l-39 -412h-146z" />
<glyph unicode="l" horiz-adv-x="516" d="M186 0l131 1395h146l-131 -1395h-146z" />
<glyph unicode="m" horiz-adv-x="1722" d="M184 0l92 979h125l-2 -191q111 215 318 216q115 0 186.5 -62.5t95.5 -173.5q104 236 330 236q159 0 235 -115q61 -91 60 -235q0 -38 -4 -79l-53 -575h-144l54 575q3 29 3 56q0 100 -42 157q-54 72 -166.5 72t-184 -102.5t-88.5 -282.5h-2l-43 -475h-143l53 575q3 29 3 56 q0 100 -42 157q-53 72 -165.5 72t-191.5 -105.5t-95 -291.5l-43 -463h-146z" />
<glyph unicode="n" horiz-adv-x="1112" d="M184 0l92 979h125l-2 -191q111 215 318 216q159 0 235 -115q61 -91 60 -235q0 -38 -4 -79l-54 -575h-143l53 575q3 29 3 56q0 100 -42 157q-53 72 -165.5 72t-191.5 -105.5t-95 -291.5l-43 -463h-146z" />
<glyph unicode="o" horiz-adv-x="1005" d="M162 489q25 246 153 383q122 132 308 132q88 0 160.5 -33t121.5 -99q84 -113 84 -295q0 -42 -4 -88q-25 -246 -154 -383q-123 -129 -307 -129t-282 129q-84 111 -84 295q0 42 4 88zM312 490q-4 -41 -4 -77q0 -121 41 -197q54 -99 183 -99t209 99q81 98 97 274q4 40 3 76 q1 122 -43 199q-56 99 -186 99q-129 0 -206.5 -99t-93.5 -275z" />
<glyph unicode="p" horiz-adv-x="1095" d="M139 -481l140 1460h118l2 -150q109 174 287 175q160 0 260 -136q87 -122 87 -304q0 -35 -3 -72q-25 -233 -158 -377q-125 -137 -292 -137q-1 -1 -2 -1q-166 0 -236 142l-57 -600h-146zM367 397h2q-2 -20 -2 -38q0 -101 55 -166q59 -72 158 -72q109 0 190 94 q90 100 108 275q5 39 5 73q0 124 -53 200q-66 97 -177 97q-102 0 -176 -74q-80 -80 -92 -217h-2z" />
<glyph unicode="q" horiz-adv-x="1077" d="M164 492q25 233 155 376q125 135 285 136q90 0 156.5 -47.5t99.5 -139.5l47 162h101l-109 -1145q-5 -38 -5 -67q0 -46 12 -67q20 -34 44.5 -49.5t61.5 -29.5l-58 -125q-125 37 -170 119q-33 60 -33 153q0 36 5 76l28 314q-90 -180 -272 -181q-164 0 -264 138 q-89 118 -89 293q0 41 5 84zM313 492q-2 -28 -2 -55q0 -133 58 -222q66 -94 174 -94q100 0 172 72q80 78 92 204l20 203q0 123 -65 195q-58 65 -156 65q-49 0 -99 -24.5t-89 -73.5q-88 -104 -105 -270z" />
<glyph unicode="r" horiz-adv-x="702" d="M184 0l92 981h146l-19 -186q88 202 252 202h2q53 0 101 -18l-23 -158q-57 20 -110 21q-117 0 -176.5 -107.5t-77.5 -292.5h-45q20 221 77 353l-73 -795h-146z" />
<glyph unicode="s" horiz-adv-x="968" d="M145 289h140q0 -6 -1 -11q0 -84 56 -128q59 -46 156.5 -46t162 45.5t70.5 107.5q1 9 1 18q0 49 -28 77q-34 33 -114 58l-166 63q-206 68 -206 238q0 14 1 28q12 121 112.5 193t258 72t239.5 -74q76 -69 76 -172v-15h-141q-6 133 -193 134q-90 0 -142 -45.5t-57 -97.5 q-1 -7 0 -13q0 -43 28 -75q34 -36 112 -62l170 -66q111 -40 165 -100q46 -51 46 -127q0 -14 -2 -29q-12 -117 -115 -196q-111 -88 -284 -88q-1 0 -2 -1q-172 -1 -261 87q-83 80 -83 203q0 11 1 22z" />
<glyph unicode="t" horiz-adv-x="692" d="M141 856l15 123h139l27 272h145l-27 -272h277l-12 -123h-277l-55 -600q-3 -19 -2 -36q-1 -49 21 -77q30 -37 93.5 -37t153.5 37l10 -114q-107 -51 -205 -51q-1 0 -1 -1q-99 0 -163 68q-54 56 -53 162q0 23 2 47l56 602h-144z" />
<glyph unicode="u" horiz-adv-x="1116" d="M209 358l59 623h146l-58 -610q-3 -26 -3 -50q0 -198 188 -198q123 0 209 106q82 104 98 275l45 477h145l-92 -981h-145l18 195q-109 -213 -313 -213q-150 0 -232 92q-68 77 -68 224q0 28 3 60z" />
<glyph unicode="v" horiz-adv-x="927" d="M125 979h164l190 -809l342 809h164l-442 -979h-160z" />
<glyph unicode="w" horiz-adv-x="1335" d="M125 979h151l142 -778l276 731h123l139 -742l289 789h146l-381 -979h-142l-139 686l-262 -686h-141z" />
<glyph unicode="x" horiz-adv-x="944" d="M47 0l381 489l-289 492h178l218 -369l276 369h176l-383 -492l289 -489h-176l-217 371l-275 -371h-178z" />
<glyph unicode="y" horiz-adv-x="892" d="M-31 -432l15 147q81 -77 178 -77h2q133 0 221 262l37 100l-268 979h161l193 -778l283 778h147l-440 -1174q-57 -150 -134 -229.5t-183.5 -79.5t-211.5 72z" />
<glyph unicode="z" horiz-adv-x="874" d="M98 0l11 131l585 717h-518l14 131h682l-14 -131l-577 -717h510l-11 -131h-682z" />
<glyph unicode="{" horiz-adv-x="643" d="M190 547l15 155h31q35 0 53 36t28 126l17 187q35 344 252 444q78 37 186 37l-12 -141q-135 0 -200.5 -87t-82.5 -255l-16 -189q-18 -176 -119 -231l-2 -8q92 -51 74 -232l-17 -190q-16 -166 32 -253t185 -87l-14 -142q-203 0 -291 136q-78 119 -55 344l16 188 q18 162 -49 162h-31z" />
<glyph unicode="|" horiz-adv-x="516" d="M162 -250l168 1786h145l-168 -1786h-145z" />
<glyph unicode="}" horiz-adv-x="653" d="M-10 -283l12 142q135 0 201.5 87t81.5 255l16 188q18 176 119 232l2 8q-90 49 -74 231l17 191q16 166 -32 253t-186 87l15 141q383 0 346 -479l-16 -189q-8 -88 3 -125t46 -37h30l-14 -155h-31q-35 0 -54 -36t-28 -126l-16 -186q-35 -346 -252 -445q-80 -37 -186 -37z " />
<glyph unicode="~" horiz-adv-x="948" d="M143 504q84 227 219 227q61 0 156.5 -45t129.5 -56.5t61 -11.5q74 0 131 117l73 -55q-84 -217 -227 -217q-43 0 -146.5 45t-136 57.5t-59.5 12.5q-70 0 -123 -121z" />
<glyph unicode="&#xa3;" d="M37 0l12 141h51q137 0 152 185l20 221h-166l11 115h168l20 223q20 203 116.5 314.5t264.5 111.5q129 0 205 -78t82 -229h-142q-8 80 -51 119.5t-121.5 39.5t-136 -65.5t-71.5 -212.5l-23 -223h336l-10 -115h-336l-21 -213q-16 -143 -88 -193h340q90 0 135 42t66 132h154 q-27 -158 -107 -231q-90 -84 -262 -84h-598z" />
<glyph unicode="&#xa8;" horiz-adv-x="595" d="M209 1698q4 43 33.5 72.5t71.5 29.5t68 -29.5t21.5 -72.5t-36 -73t-73.5 -30t-65.5 30t-19.5 73zM518 1698q4 43 34 72.5t72 29.5t67.5 -29.5t21.5 -72.5t-36 -73t-74 -30t-65.5 30t-19.5 73z" />
<glyph unicode="&#xad;" horiz-adv-x="643" d="M119 526l14 140h502l-14 -140h-502z" />
<glyph unicode="&#xb4;" horiz-adv-x="579" d="M182 1489l459 272l47 -143l-473 -232z" />
<glyph unicode="&#xc0;" horiz-adv-x="1058" d="M47 0l520 1288h178l267 -1288h-152l-67 328h-461l-131 -328h-154zM381 455h385l-131 637zM442 1618l74 143l408 -272l-52 -103z" />
<glyph unicode="&#xc1;" horiz-adv-x="1058" d="M47 0l520 1288h178l267 -1288h-152l-67 328h-461l-131 -328h-154zM381 455h385l-131 637zM428 1489l459 272l47 -143l-473 -232z" />
<glyph unicode="&#xc2;" horiz-adv-x="1058" d="M47 0l520 1288h178l267 -1288h-152l-67 328h-461l-131 -328h-154zM340 1466l360 320l301 -320l-98 -80l-219 222l-260 -222zM381 455h385l-131 637z" />
<glyph unicode="&#xc3;" horiz-adv-x="1058" d="M47 0l520 1288h178l267 -1288h-152l-67 328h-461l-131 -328h-154zM381 455h385l-131 637zM385 1511q66 213 184 213q39 0 97.5 -34.5t77 -45t30.5 -16.5q20 -10 43 -10q59 0 107 106l59 -47q-29 -98 -79 -151t-89 -53t-67.5 12t-81.5 43q-80 49 -111 49q-61 0 -115 -104z " />
<glyph unicode="&#xc4;" horiz-adv-x="1058" d="M47 0l520 1288h178l267 -1288h-152l-67 328h-461l-131 -328h-154zM381 455h385l-131 637zM471 1608q4 43 34 72.5t71.5 29.5t67.5 -29.5t22 -72.5t-36 -73t-74 -30t-65.5 30t-19.5 73zM780 1608q4 43 34 72.5t72 29.5t67.5 -29.5t21.5 -72.5t-36 -73t-74 -30t-65.5 30 t-19.5 73z" />
<glyph unicode="&#xc8;" d="M184 0l121 1288h715l-16 -139h-568l-41 -432h535l-12 -137h-535l-41 -439h569l-14 -141h-713zM449 1618l73 143l408 -272l-51 -103z" />
<glyph unicode="&#xc9;" d="M184 0l121 1288h715l-16 -139h-568l-41 -432h535l-12 -137h-535l-41 -439h569l-14 -141h-713zM434 1489l459 272l47 -143l-473 -232z" />
<glyph unicode="&#xca;" d="M193 0l120 1288h715l-16 -139h-568l-41 -432h535l-12 -137h-535l-41 -439h570l-15 -141h-712zM358 1466l361 320l301 -320l-98 -80l-220 222l-260 -222z" />
<glyph unicode="&#xcb;" d="M184 0l121 1288h715l-16 -139h-568l-41 -432h535l-12 -137h-535l-41 -439h569l-14 -141h-713zM442 1608q4 43 34 72.5t72 29.5t67.5 -29.5t21.5 -72.5t-36 -73t-74 -30t-65.5 30t-19.5 73zM752 1608q4 43 33.5 72.5t71.5 29.5t67.5 -29.5t21.5 -72.5t-35.5 -73t-73.5 -30 t-65.5 30t-19.5 73z" />
<glyph unicode="&#xcc;" horiz-adv-x="516" d="M166 1618l74 143l407 -272l-51 -103zM186 0l121 1288h146l-121 -1288h-146z" />
<glyph unicode="&#xcd;" horiz-adv-x="516" d="M152 1489l458 272l47 -143l-473 -232zM186 0l121 1288h146l-121 -1288h-146z" />
<glyph unicode="&#xce;" horiz-adv-x="516" d="M66 1466l360 320l301 -320l-98 -80l-219 222l-260 -222zM186 0l121 1288h146l-121 -1288h-146z" />
<glyph unicode="&#xcf;" horiz-adv-x="516" d="M164 1608q4 43 33.5 72.5t71.5 29.5t67.5 -29.5t21.5 -72.5t-35.5 -73t-73.5 -30t-65.5 30t-19.5 73zM190 0l121 1288h146l-121 -1288h-146zM473 1608q4 43 34 72.5t72 29.5t67.5 -29.5t21.5 -72.5t-36 -73t-74 -30t-65.5 30t-19.5 73z" />
<glyph unicode="&#xd1;" horiz-adv-x="1263" d="M182 0l121 1288h174l475 -1032l101 1032h145l-121 -1288h-164l-485 1051l-98 -1051h-148zM483 1511q66 213 185 213q39 0 97 -34.5t76.5 -45t30.5 -16.5q20 -10 43 -10q59 0 107 106l59 -47q-29 -98 -79 -151t-89 -53t-67.5 12t-81.5 43q-80 49 -111 49q-61 0 -114 -104z " />
<glyph unicode="&#xd2;" horiz-adv-x="1189" d="M186 643q27 324 189 504q150 164 375 164t344 -168q125 -172 96 -500q-31 -328 -193 -502q-152 -164 -374 -164q-227 0 -342 166q-125 176 -95 500zM335.5 641q-24.5 -254 57.5 -385t244 -131t269.5 131t132 385t-58.5 389t-246 135t-268.5 -135t-130 -389zM532 1618 l74 143l408 -272l-51 -103z" />
<glyph unicode="&#xd3;" horiz-adv-x="1189" d="M186 643q27 324 189 504q150 164 375 164t344 -168q125 -172 96 -500q-31 -328 -193 -502q-152 -164 -374 -164q-227 0 -342 166q-125 176 -95 500zM335.5 641q-24.5 -254 57.5 -385t244 -131t269.5 131t132 385t-58.5 389t-246 135t-268.5 -135t-130 -389zM518 1489 l459 272l47 -143l-473 -232z" />
<glyph unicode="&#xd4;" horiz-adv-x="1189" d="M186 643q27 324 189 504q150 164 375 164t344 -168q125 -172 96 -500q-31 -328 -193 -502q-152 -164 -374 -164q-227 0 -342 166q-125 176 -95 500zM335.5 641q-24.5 -254 57.5 -385t244 -131t269.5 131t132 385t-58.5 389t-246 135t-268.5 -135t-130 -389zM432 1466 l361 320l301 -320l-99 -80l-219 222l-260 -222z" />
<glyph unicode="&#xd5;" horiz-adv-x="1189" d="M186 643q27 324 189 504q150 164 375 164t344 -168q125 -172 96 -500q-31 -328 -193 -502q-152 -164 -374 -164q-227 0 -342 166q-125 176 -95 500zM335.5 641q-24.5 -254 57.5 -385t244 -131t269.5 131t132 385t-58.5 389t-246 135t-268.5 -135t-130 -389zM477 1511 q66 213 185 213q39 0 97 -34.5t76.5 -45t30.5 -16.5q20 -10 43 -10q59 0 107 106l59 -47q-29 -98 -79 -151t-89 -53t-67.5 12t-81.5 43q-80 49 -111 49q-61 0 -115 -104z" />
<glyph unicode="&#xd6;" horiz-adv-x="1189" d="M186 643q27 324 189 504q150 164 375 164t344 -168q125 -172 96 -500q-31 -328 -193 -502q-152 -164 -374 -164q-227 0 -342 166q-125 176 -95 500zM335.5 641q-24.5 -254 57.5 -385t244 -131t269.5 131t132 385t-58.5 389t-246 135t-268.5 -135t-130 -389zM524 1608 q4 43 34 72.5t72 29.5t67.5 -29.5t21.5 -72.5t-36 -73t-74 -30t-65.5 30t-19.5 73zM833.5 1608q4.5 43 34 72.5t71.5 29.5t67.5 -29.5t21.5 -72.5t-35.5 -73t-73.5 -30t-66 30t-19.5 73z" />
<glyph unicode="&#xd9;" horiz-adv-x="1206" d="M225 465l80 823h146l-80 -823q-16 -180 56.5 -260t206.5 -80t222 80t105 260l79 823h146l-80 -823q-23 -242 -154 -365t-332.5 -123t-309 123t-85.5 365zM530 1618l74 143l408 -272l-51 -103z" />
<glyph unicode="&#xda;" horiz-adv-x="1206" d="M225 465l80 823h146l-80 -823q-16 -180 56.5 -260t206.5 -80t222 80t105 260l79 823h146l-80 -823q-23 -242 -154 -365t-332.5 -123t-309 123t-85.5 365zM516 1489l459 272l47 -143l-473 -232z" />
<glyph unicode="&#xdb;" horiz-adv-x="1206" d="M225 465l80 823h146l-80 -823q-16 -180 56.5 -260t206.5 -80t222 80t105 260l79 823h146l-80 -823q-23 -242 -154 -365t-332.5 -123t-309 123t-85.5 365zM430 1466l361 320l301 -320l-99 -80l-219 222l-260 -222z" />
<glyph unicode="&#xdc;" horiz-adv-x="1206" d="M225 465l80 823h146l-80 -823q-16 -180 56.5 -260t206.5 -80t222 80t105 260l79 823h146l-80 -823q-23 -242 -154 -365t-332.5 -123t-309 123t-85.5 365zM522 1608q4 43 34 72.5t72 29.5t67.5 -29.5t21.5 -72.5t-36 -73t-74 -30t-65.5 30t-19.5 73zM831.5 1608 q4.5 43 34 72.5t71.5 29.5t67.5 -29.5t21.5 -72.5t-36 -73t-74 -30t-65.5 30t-19 73z" />
<glyph unicode="&#xe0;" horiz-adv-x="1015" d="M150 274q12 139 118 218q96 72 238.5 71.5t265.5 -53.5l12 125q12 133 -31.5 190.5t-138 57.5t-157 -41t-70.5 -133h-162q16 160 125 227.5t266 67.5q248 0 302 -205q18 -70 10 -168l-60 -631h-125l2 164q-100 -186 -313 -187q-141 0 -221 93q-74 84 -61 204zM305 288 q-8 -85 30 -135.5t139 -50.5t182 75t104 202v6l2 23q-127 41 -224.5 41t-161 -38t-71.5 -123zM414 1354l73 143l408 -272l-51 -103z" />
<glyph unicode="&#xe1;" horiz-adv-x="1015" d="M150 274q12 139 118 218q96 72 238.5 71.5t265.5 -53.5l12 125q12 133 -31.5 190.5t-138 57.5t-157 -41t-70.5 -133h-162q16 160 125 227.5t266 67.5q248 0 302 -205q18 -70 10 -168l-60 -631h-125l2 164q-100 -186 -313 -187q-141 0 -221 93q-74 84 -61 204zM305 288 q-8 -85 30 -135.5t139 -50.5t182 75t104 202v6l2 23q-127 41 -224.5 41t-161 -38t-71.5 -123zM399 1225l459 272l47 -143l-473 -232z" />
<glyph unicode="&#xe2;" horiz-adv-x="1015" d="M150 274q12 139 118 218q96 72 238.5 71.5t265.5 -53.5l12 125q12 133 -31.5 190.5t-138 57.5t-157 -41t-70.5 -133h-162q16 160 125 227.5t266 67.5q248 0 302 -205q18 -70 10 -168l-60 -631h-125l2 164q-100 -186 -313 -187q-141 0 -221 93q-74 84 -61 204zM305 288 q-8 -85 30 -135.5t140 -50.5q104 0 184 76q80 80 101 207l2 23q-127 41 -224.5 41t-161 -38t-71.5 -123zM313 1202l361 320l301 -320l-98 -80l-220 221l-260 -221z" />
<glyph unicode="&#xe3;" horiz-adv-x="1015" d="M150 274q12 139 118 218q96 72 238.5 71.5t265.5 -53.5l12 125q12 133 -31.5 190.5t-138 57.5t-157 -41t-70.5 -133h-162q16 160 125 227.5t266 67.5q248 0 302 -205q18 -70 10 -168l-60 -631h-125l2 164q-100 -186 -313 -187q-141 0 -221 93q-74 84 -61 204zM305 288 q-8 -85 30 -135.5t139 -50.5t182 75t104 202v6l2 23q-127 41 -224.5 41t-161 -38t-71.5 -123zM356 1247q66 213 185 213q39 0 97 -34.5t76.5 -45t30.5 -16.5q20 -10 43 -10q59 0 107 106l59 -47q-29 -98 -79 -151.5t-88.5 -53.5t-67.5 12.5t-82 45.5q-80 47 -111 47 q-61 0 -114 -105z" />
<glyph unicode="&#xe4;" horiz-adv-x="1015" d="M150 274q12 139 118 218q96 72 238.5 71.5t265.5 -53.5l12 125q12 133 -31.5 190.5t-138 57.5t-157 -41t-70.5 -133h-162q16 160 125 227.5t266 67.5q248 0 302 -205q18 -70 10 -168l-60 -631h-125l2 164q-100 -186 -313 -187q-141 0 -221 93q-74 84 -61 204zM305 288 q-8 -85 30 -135.5t140 -50.5q104 0 184 76q80 80 101 207l2 23q-127 41 -224.5 41t-161 -38t-71.5 -123zM405.5 1341q4.5 43 34 73t71.5 30t67.5 -30t21.5 -73t-36 -72.5t-73.5 -29.5t-65.5 29.5t-19.5 72.5zM715 1341q4 43 33.5 73t71.5 30t67.5 -30t21.5 -73t-35.5 -72.5 t-73.5 -29.5t-65.5 29.5t-19.5 72.5z" />
<glyph unicode="&#xe8;" horiz-adv-x="948" d="M164 487q25 238 149 377q123 139 297 140q195 0 275 -166q74 -150 24 -383h-604q-20 -240 113 -320q45 -26 108 -26q180 0 226 178h149q-35 -147 -139.5 -228.5t-247.5 -81.5q-176 0 -272 138q-102 143 -78 372zM319 578h472q22 204 -91 272q-39 25 -98 24.5t-106 -24 t-82 -64.5q-74 -82 -95 -208zM383 1364l74 143l407 -272l-51 -102z" />
<glyph unicode="&#xe9;" horiz-adv-x="948" d="M164 487q25 238 149 377q123 139 297 140q195 0 275 -166q74 -150 24 -383h-604q-12 -156 43 -246q59 -100 178 -100q181 0 226 178h149q-35 -147 -139.5 -228.5t-247.5 -81.5q-176 0 -272 138q-102 143 -78 372zM319 578h472q14 125 -29 204q-20 43 -60.5 67.5 t-99.5 24.5q-113 0 -188 -88q-74 -82 -95 -208zM369 1235l458 272l47 -143l-473 -231z" />
<glyph unicode="&#xea;" horiz-adv-x="948" d="M170 487q25 238 149 377q123 139 297 140q195 0 275 -166q74 -150 24 -383h-604q-20 -240 115 -320q43 -26 106 -26q180 0 226 178h149q-35 -147 -139 -228.5t-248 -81.5q-176 0 -272 138q-102 143 -78 372zM289 1212l360 320l301 -320l-98 -79l-219 221l-260 -221z M326 578h471q23 204 -88 272q-41 25 -100.5 24.5t-106.5 -24t-84 -64.5q-72 -82 -92 -208z" />
<glyph unicode="&#xeb;" horiz-adv-x="948" d="M164 487q25 238 149 377q123 139 297 140q195 0 275 -166q74 -150 24 -383h-604q-20 -240 113 -320q45 -26 108 -26q180 0 226 178h149q-35 -147 -139.5 -228.5t-247.5 -81.5q-176 0 -272 138q-102 143 -78 372zM319 578h472q22 204 -91 272q-39 25 -98 24.5t-106 -24 t-82 -64.5q-74 -82 -95 -208zM377 1341q4 43 33.5 73t71.5 30t67.5 -30t21.5 -73t-35.5 -72.5t-73.5 -29.5t-65.5 29.5t-19.5 72.5zM686 1341q4 43 34 73t72 30t67.5 -30t21.5 -73t-36 -72.5t-74 -29.5t-65.5 29.5t-19.5 72.5z" />
<glyph unicode="&#xec;" horiz-adv-x="550" d="M150 1354l73 143l408 -272l-51 -103zM195 0l92 981h145l-92 -981h-145z" />
<glyph unicode="&#xed;" horiz-adv-x="550" d="M135 1225l459 272l47 -143l-473 -232zM195 0l92 981h145l-92 -981h-145z" />
<glyph unicode="&#xee;" horiz-adv-x="550" d="M51 1202l361 320l301 -320l-99 -80l-219 221l-260 -221zM195 0l92 981h145l-92 -981h-145z" />
<glyph unicode="&#xef;" horiz-adv-x="550" d="M147.5 1341q4.5 43 34 73t71.5 30t67.5 -30t21.5 -73t-36 -72.5t-74 -29.5t-65.5 29.5t-19 72.5zM199 0l92 981h145l-92 -981h-145zM457 1341q4 43 33.5 73t71.5 30t67.5 -30t21.5 -73t-35.5 -72.5t-73.5 -29.5t-65.5 29.5t-19.5 72.5z" />
<glyph unicode="&#xf1;" horiz-adv-x="1114" d="M186 0l93 979h124l-2 -191q111 216 318 216q158 0 234.5 -115t56.5 -314l-54 -575h-143l53 575q14 141 -39 213t-165.5 72t-191.5 -105.5t-95 -291.5l-43 -463h-146zM389 1247q66 213 184 213q39 0 97.5 -34.5t77 -45t30.5 -16.5q20 -10 43 -10q59 0 107 106l59 -47 q-29 -98 -79 -151.5t-89 -53.5t-67.5 12.5t-81.5 45.5q-80 47 -111 47q-61 0 -115 -105z" />
<glyph unicode="&#xf2;" horiz-adv-x="1007" d="M164 489q25 246 151 383q124 132 308 132q90 0 162.5 -33t119.5 -99q106 -139 82 -383q-25 -246 -153 -383q-123 -129 -307.5 -129t-282.5 129q-104 137 -80 383zM313.5 490.5q-16.5 -175.5 38 -274.5t183.5 -99t208.5 99t96 274.5t-40 274.5t-185.5 99t-206.5 -99 t-94 -274.5zM412 1354l73 143l408 -272l-51 -103z" />
<glyph unicode="&#xf3;" horiz-adv-x="1007" d="M164 489q25 246 151 383q61 66 140.5 99t167.5 33q186 0 282 -132q106 -139 82 -383q-25 -246 -153 -383q-123 -129 -307.5 -129t-282.5 129q-104 137 -80 383zM313.5 490.5q-16.5 -175.5 38 -274.5t183.5 -99t208.5 99t96 274.5t-40 274.5t-185.5 99t-206.5 -99 t-94 -274.5zM397 1225l459 272l47 -143l-473 -232z" />
<glyph unicode="&#xf4;" horiz-adv-x="1007" d="M164 489q25 246 151 383q124 132 308 132q90 0 162.5 -33t119.5 -99q106 -139 82 -383q-25 -246 -153 -383q-123 -129 -307.5 -129t-282.5 129q-104 137 -80 383zM309 1202l361 320l301 -320l-99 -80l-219 221l-260 -221zM313.5 490.5q-16.5 -175.5 38 -274.5t183.5 -99 t208.5 99t96 274.5t-40 274.5t-185.5 99t-206.5 -99t-94 -274.5z" />
<glyph unicode="&#xf5;" horiz-adv-x="1007" d="M164 489q25 246 151 383q61 66 140.5 99t167.5 33q186 0 282 -132q106 -139 82 -383q-25 -246 -153 -383q-123 -129 -307.5 -129t-282.5 129q-104 137 -80 383zM313.5 490.5q-16.5 -175.5 38 -274.5t183.5 -99t208.5 99t96 274.5t-40 274.5t-185.5 99t-206.5 -99 t-94 -274.5zM356 1247q66 213 185 213q39 0 97 -34.5t76.5 -45t30.5 -16.5q20 -10 43 -10q59 0 107 106l59 -47q-29 -98 -79 -151.5t-88.5 -53.5t-67.5 12.5t-82 45.5q-80 47 -111 47q-61 0 -114 -105z" />
<glyph unicode="&#xf6;" horiz-adv-x="1007" d="M164 489q25 246 151 383q124 132 308 132q90 0 162.5 -33t119.5 -99q106 -139 82 -383q-25 -246 -153 -383q-123 -129 -307.5 -129t-282.5 129q-104 137 -80 383zM313.5 490.5q-16.5 -175.5 38 -274.5t183.5 -99t208.5 99t96 274.5t-40 274.5t-185.5 99t-206.5 -99 t-94 -274.5zM403.5 1341q4.5 43 34 73t71.5 30t67.5 -30t21.5 -73t-36 -72.5t-74 -29.5t-65.5 29.5t-19 72.5zM713 1341q4 43 33.5 73t71.5 30t67.5 -30t21.5 -73t-35.5 -72.5t-73.5 -29.5t-65.5 29.5t-19.5 72.5z" />
<glyph unicode="&#xf9;" horiz-adv-x="1116" d="M209 358l59 623h146l-58 -610q-25 -248 185 -248q123 0 209 106q82 104 98 275l45 477h145l-92 -981h-145l18 195q-109 -213 -313 -213q-150 0 -231.5 92t-65.5 284zM459 1432l73 143l408 -272l-51 -103z" />
<glyph unicode="&#xfa;" horiz-adv-x="1116" d="M209 358l59 623h146l-58 -610q-24 -248 185 -248q123 0 209 106q82 104 98 275l45 477h145l-92 -981h-145l18 195q-109 -213 -313 -213q-150 0 -231.5 92t-65.5 284zM444 1303l459 272l47 -143l-473 -232z" />
<glyph unicode="&#xfb;" horiz-adv-x="1116" d="M209 358l59 623h146l-58 -610q-25 -248 185 -248q123 0 209 106q82 104 98 275l45 477h145l-92 -981h-145l18 195q-109 -213 -313 -213q-150 0 -231.5 92t-65.5 284zM358 1280l361 319l301 -319l-98 -80l-220 221l-260 -221z" />
<glyph unicode="&#xfc;" horiz-adv-x="1116" d="M209 358l59 623h146l-58 -610q-25 -248 185 -248q123 0 209 106q82 104 98 275l45 477h145l-92 -981h-145l18 195q-109 -213 -313 -213q-150 0 -231.5 92t-65.5 284zM444.5 1341q4.5 43 34 73t71.5 30t67.5 -30t21.5 -73t-36 -72.5t-74 -29.5t-65.5 29.5t-19 72.5z M754 1341q4 43 33.5 73t71.5 30t67.5 -30t21.5 -73t-35.5 -72.5t-73.5 -29.5t-65.5 29.5t-19.5 72.5z" />
<glyph unicode="&#x2c6;" horiz-adv-x="749" d="M182 1466l361 320l301 -320l-99 -80l-219 222l-260 -222z" />
<glyph unicode="&#x2dc;" horiz-adv-x="673" d="M184 1511q66 213 185 213q39 0 97 -34.5t76.5 -45t30.5 -16.5q20 -10 43 -10q59 0 107 106l59 -47q-29 -98 -79 -151t-89 -53t-67.5 12t-81.5 43q-80 49 -111 49q-61 0 -114 -104z" />
<glyph unicode="&#x2000;" horiz-adv-x="900" />
<glyph unicode="&#x2001;" horiz-adv-x="1800" />
<glyph unicode="&#x2002;" horiz-adv-x="900" />
<glyph unicode="&#x2003;" horiz-adv-x="1800" />
<glyph unicode="&#x2004;" horiz-adv-x="600" />
<glyph unicode="&#x2005;" horiz-adv-x="450" />
<glyph unicode="&#x2006;" horiz-adv-x="300" />
<glyph unicode="&#x2007;" horiz-adv-x="300" />
<glyph unicode="&#x2008;" horiz-adv-x="225" />
<glyph unicode="&#x2009;" horiz-adv-x="360" />
<glyph unicode="&#x200a;" horiz-adv-x="100" />
<glyph unicode="&#x2010;" horiz-adv-x="643" d="M119 526l14 140h502l-14 -140h-502z" />
<glyph unicode="&#x2011;" horiz-adv-x="643" d="M119 526l14 140h502l-14 -140h-502z" />
<glyph unicode="&#x2012;" horiz-adv-x="643" d="M119 526l14 140h502l-14 -140h-502z" />
<glyph unicode="&#x2013;" horiz-adv-x="874" d="M152 526l12 140h672l-15 -140h-669z" />
<glyph unicode="&#x2014;" horiz-adv-x="1337" d="M152 526l12 140h1134l-12 -140h-1134z" />
<glyph unicode="&#x2018;" horiz-adv-x="395" d="M169 1021q7 71 57 143.5t136 117.5l97 -59q-123 -68 -152 -156q41 -4 66.5 -30.5t21.5 -71.5t-36.5 -77t-84 -32t-82 47t-23.5 118z" />
<glyph unicode="&#x2019;" horiz-adv-x="395" d="M115 918q123 68 151 155q-41 4 -67.5 30.5t-22.5 72.5q4 45 37 75.5t85 30.5t83 -45t23.5 -116.5t-57.5 -144.5t-136 -120z" />
<glyph unicode="&#x202f;" horiz-adv-x="360" />
<glyph unicode="&#x205f;" horiz-adv-x="450" />
<glyph unicode="&#x25fc;" horiz-adv-x="983" d="M0 0v983h983v-983h-983z" />
</font>
</defs>
</svg>
